1. No user installed addons are supported, python or otherwise.
2. No, they really are not supported.
3. They are not coming back
4. Read from 1. again

Any mention of illegal streaming sites, addons or any pirated material will not be tolerated. This is not democracy and any offenders will be banned and posts deleted immediately without warning.

Other than that, we hope you enjoy MrMC so far and we welcome any input and feedback you might have.

Team MrMC.

Testing MrMC 3.8.1 for Google Play

Google Play Store and App Store beta test feedback
Locked
cosmoxl
Posts: 1521
Joined: 12 Dec 2015, 14:16

Re: Testing MrMC 3.8.0 for Google Play

Post by cosmoxl » 23 Feb 2019, 17:15

Rootax wrote:
23 Feb 2019, 16:59
In mkv files, if I jump to next chapter, then the playback become very choppy.

I don't know if anyone already reported this. If not, I can submit a log file.
I'm seeing playback become choppy even while just watching but certainly after skips too.

Rootax
Posts: 17
Joined: 29 May 2018, 14:17

Re: Testing MrMC 3.8.0 for Google Play

Post by Rootax » 23 Feb 2019, 17:37

Ok so here is the log about that :

https://pastebin.com/xHVyuCwf


maybe it's the : 18:32:20.082 T:158371538160 WARNING: Previous line repeats 4 times.
18:32:20.082 T:158371538160 ERROR: CDVDMsgGeneralSynchronize - timeout
18:32:20.090 T:158695634160 WARNING: CDVDVideoCodecAndroidMediaCodec: demux packets over-buffering

?




I launched MrMc, start playing a video (via plex client), jump to some chapters, went back some chapters, and bam, playing is chopper, like a 1 sec pause every 2 seconds. The audio is still fine. I've auto frame rate enabled. I've to say btw that auto frame rate cause sometime some stuttering too, and little desync between audio and video for 4k/hevc files, while it's perfect with the native plex client. My shield is connected with ethernet, 1gb/sec, iperf show it's pulling around 700mb/sec without problem. And it happens with low bitrate too so I double it's a network issue.

User avatar
davilla
Team MrMC
Posts: 3989
Joined: 26 Oct 2015, 17:01

Re: Testing MrMC 3.8.0 for Google Play

Post by davilla » 23 Feb 2019, 18:19

cosmoxl wrote:
23 Feb 2019, 13:45
koying wrote:
23 Feb 2019, 10:26
RC1 incoming. If you see bugs/issues, now is the time...
Those already posted and still present, please recap and I'll review.
I still see switching of frame rate a few seconds into the DVD rips even though the setting is on "start/stop" only. You should have been able to test this with the DVD rip I sent you.
I've looked at this sample. It starts at 29.97, then switches to 23.98.
MediaInfo says:
Frame rate mode : Variable
Frame rate : 25.664 FPS
Original frame rate : 23.976 (24000/1001) FPS

So even it is confused. I'm not sure what can be done. Picking the start frame rate would wrong for the rest.

cosmoxl
Posts: 1521
Joined: 12 Dec 2015, 14:16

Re: Testing MrMC 3.8.0 for Google Play

Post by cosmoxl » 23 Feb 2019, 18:26

davilla wrote:
23 Feb 2019, 18:19
cosmoxl wrote:
23 Feb 2019, 13:45
koying wrote:
23 Feb 2019, 10:26
RC1 incoming. If you see bugs/issues, now is the time...
Those already posted and still present, please recap and I'll review.
I still see switching of frame rate a few seconds into the DVD rips even though the setting is on "start/stop" only. You should have been able to test this with the DVD rip I sent you.
I've looked at this sample. It starts at 29.97, then switches to 23.98.
MediaInfo says:
Frame rate mode : Variable
Frame rate : 25.664 FPS
Original frame rate : 23.976 (24000/1001) FPS

So even it is confused. I'm not sure what can be done. Picking the start frame rate would wrong for the rest.
Are we talking about the same sample? The one I uploaded is:

Code: Select all

Video 
ID : 1 
ID in the original source medium : 224 (0xE0) 
Format : MPEG Video 
Format version : Version 2 
Format profile : Main@Main 
Format settings : CustomMatrix / BVOP 
Format settings, BVOP : Yes 
Format settings, Matrix : Custom 
Format settings, GOP : Variable 
Format settings, picture structure : Frame 
Codec ID : V_MPEG2 
Codec ID/Info : MPEG 1 or 2 Video 
Duration : 45 min 58 s 
Bit rate mode : Variable 
Bit rate : 5 079 kb/s 
Maximum bit rate : 9 800 kb/s 
Width : 720 pixels 
Height : 480 pixels 
Display aspect ratio : 4:3 
Frame rate mode : Variable 
Frame rate : 24.257 FPS 
Original frame rate : 29.970 (30000/1001) FPS 
Standard : Component 
Color space : YUV 
Chroma subsampling : 4:2:0 
Bit depth : 8 bits 
Scan type : Interlaced 
Scan order : Top Field First 
Compression mode : Lossy 
Bits/(Pixel*Frame) : 0.606 
Time code of first frame : 00:59:59;00 
Time code source : Group of pictures header 
GOP, Open/Closed : Open 
GOP, Open/Closed of first frame : Closed 
Stream size : 1.63 GiB (92%) 
Language : English 
Default : No 
Forced : No 
Color primaries : BT.601 NTSC 
Transfer characteristics : BT.601 
Matrix coefficients : BT.601 
Original source medium : DVD-Video 
It is variable with some of the content (CGI) being 29.97fps but the live action being 23.976fps. Of course, then it's screwed up for broadcast and then maybe the only version they have is for broadcast so that's why even the DVD says original frame rate is 29.97. Trying to reconstruct it properly isn't trivial, I know. This particular sample I sent should see the AMC decoders start at 29.97 and then change to 60.606.

But, the main point I try to make is that the setting for adjusting resolution only on start and stop doesn't work so it either should work or be removed. :)

cosmoxl
Posts: 1521
Joined: 12 Dec 2015, 14:16

Re: Testing MrMC 3.8.0 for Google Play

Post by cosmoxl » 23 Feb 2019, 18:35

Keep in mind I can just share my plex server with the devs for testing these videos. :)

nigelwalker
Posts: 10
Joined: 10 Jul 2018, 10:22

Re: Testing MrMC 3.8.0 for Google Play

Post by nigelwalker » 23 Feb 2019, 19:12

Plex client keeps locking up its as if it's frozen button pressed on remote do nothing at all have to pull power

User avatar
davilla
Team MrMC
Posts: 3989
Joined: 26 Oct 2015, 17:01

Re: Testing MrMC 3.8.0 for Google Play

Post by davilla » 23 Feb 2019, 19:12

cosmoxl wrote:
23 Feb 2019, 18:26
davilla wrote:
23 Feb 2019, 18:19
cosmoxl wrote:
23 Feb 2019, 13:45


I still see switching of frame rate a few seconds into the DVD rips even though the setting is on "start/stop" only. You should have been able to test this with the DVD rip I sent you.
I've looked at this sample. It starts at 29.97, then switches to 23.98.
MediaInfo says:
Frame rate mode : Variable
Frame rate : 25.664 FPS
Original frame rate : 23.976 (24000/1001) FPS

So even it is confused. I'm not sure what can be done. Picking the start frame rate would wrong for the rest.
Are we talking about the same sample? The one I uploaded is:

Code: Select all

Video 
ID : 1 
ID in the original source medium : 224 (0xE0) 
Format : MPEG Video 
Format version : Version 2 
Format profile : Main@Main 
Format settings : CustomMatrix / BVOP 
Format settings, BVOP : Yes 
Format settings, Matrix : Custom 
Format settings, GOP : Variable 
Format settings, picture structure : Frame 
Codec ID : V_MPEG2 
Codec ID/Info : MPEG 1 or 2 Video 
Duration : 45 min 58 s 
Bit rate mode : Variable 
Bit rate : 5 079 kb/s 
Maximum bit rate : 9 800 kb/s 
Width : 720 pixels 
Height : 480 pixels 
Display aspect ratio : 4:3 
Frame rate mode : Variable 
Frame rate : 24.257 FPS 
Original frame rate : 29.970 (30000/1001) FPS 
Standard : Component 
Color space : YUV 
Chroma subsampling : 4:2:0 
Bit depth : 8 bits 
Scan type : Interlaced 
Scan order : Top Field First 
Compression mode : Lossy 
Bits/(Pixel*Frame) : 0.606 
Time code of first frame : 00:59:59;00 
Time code source : Group of pictures header 
GOP, Open/Closed : Open 
GOP, Open/Closed of first frame : Closed 
Stream size : 1.63 GiB (92%) 
Language : English 
Default : No 
Forced : No 
Color primaries : BT.601 NTSC 
Transfer characteristics : BT.601 
Matrix coefficients : BT.601 
Original source medium : DVD-Video 
It is variable with some of the content (CGI) being 29.97fps but the live action being 23.976fps. Of course, then it's screwed up for broadcast and then maybe the only version they have is for broadcast so that's why even the DVD says original frame rate is 29.97. Trying to reconstruct it properly isn't trivial, I know. This particular sample I sent should see the AMC decoders start at 29.97 and then change to 60.606.

But, the main point I try to make is that the setting for adjusting resolution only on start and stop doesn't work so it either should work or be removed. :)
xinseo.mkv

Skunkworks:mrmc-private davilla$ mediainfo --Version
MediaInfo Command line,
MediaInfoLib - v17.12

start/stop works for me. video starts, it adjusts and will readjust if the stream changes, then back when stop

cosmoxl
Posts: 1521
Joined: 12 Dec 2015, 14:16

Re: Testing MrMC 3.8.0 for Google Play

Post by cosmoxl » 23 Feb 2019, 19:16

davilla wrote:
23 Feb 2019, 19:12
cosmoxl wrote:
23 Feb 2019, 18:26
davilla wrote:
23 Feb 2019, 18:19


I've looked at this sample. It starts at 29.97, then switches to 23.98.
MediaInfo says:
Frame rate mode : Variable
Frame rate : 25.664 FPS
Original frame rate : 23.976 (24000/1001) FPS

So even it is confused. I'm not sure what can be done. Picking the start frame rate would wrong for the rest.
Are we talking about the same sample? The one I uploaded is:

Code: Select all

Video 
ID : 1 
ID in the original source medium : 224 (0xE0) 
Format : MPEG Video 
Format version : Version 2 
Format profile : Main@Main 
Format settings : CustomMatrix / BVOP 
Format settings, BVOP : Yes 
Format settings, Matrix : Custom 
Format settings, GOP : Variable 
Format settings, picture structure : Frame 
Codec ID : V_MPEG2 
Codec ID/Info : MPEG 1 or 2 Video 
Duration : 45 min 58 s 
Bit rate mode : Variable 
Bit rate : 5 079 kb/s 
Maximum bit rate : 9 800 kb/s 
Width : 720 pixels 
Height : 480 pixels 
Display aspect ratio : 4:3 
Frame rate mode : Variable 
Frame rate : 24.257 FPS 
Original frame rate : 29.970 (30000/1001) FPS 
Standard : Component 
Color space : YUV 
Chroma subsampling : 4:2:0 
Bit depth : 8 bits 
Scan type : Interlaced 
Scan order : Top Field First 
Compression mode : Lossy 
Bits/(Pixel*Frame) : 0.606 
Time code of first frame : 00:59:59;00 
Time code source : Group of pictures header 
GOP, Open/Closed : Open 
GOP, Open/Closed of first frame : Closed 
Stream size : 1.63 GiB (92%) 
Language : English 
Default : No 
Forced : No 
Color primaries : BT.601 NTSC 
Transfer characteristics : BT.601 
Matrix coefficients : BT.601 
Original source medium : DVD-Video 
It is variable with some of the content (CGI) being 29.97fps but the live action being 23.976fps. Of course, then it's screwed up for broadcast and then maybe the only version they have is for broadcast so that's why even the DVD says original frame rate is 29.97. Trying to reconstruct it properly isn't trivial, I know. This particular sample I sent should see the AMC decoders start at 29.97 and then change to 60.606.

But, the main point I try to make is that the setting for adjusting resolution only on start and stop doesn't work so it either should work or be removed. :)
xinseo.mkv

Skunkworks:mrmc-private davilla$ mediainfo --Version
MediaInfo Command line,
MediaInfoLib - v17.12

start/stop works for me. video starts, it adjusts and will readjust if the stream changes, then back when stop
No, that's not my sample. Another user uploaded that.

"Always" adjust resolution means what you described. On start stop means it does not readjust once it starts playing...until I stop. :)

User avatar
davilla
Team MrMC
Posts: 3989
Joined: 26 Oct 2015, 17:01

Re: Testing MrMC 3.8.0 for Google Play

Post by davilla » 23 Feb 2019, 19:21

cosmoxl wrote:
23 Feb 2019, 19:16
No, that's not my sample. Another user uploaded that.
:) I was wondering about your sudden interest in that that type of content

semperfixd
Posts: 34
Joined: 09 May 2018, 18:25

Re: Testing MrMC 3.8.0 for Google Play

Post by semperfixd » 23 Feb 2019, 23:17

semperfixd wrote:
23 Feb 2019, 11:57
koying wrote:
23 Feb 2019, 10:26
RC1 incoming. If you see bugs/issues, now is the time...
Those already posted and still present, please recap and I'll review.
I have pushed you a file called "NCOP-1 (for ordered chapters)".

The issue is that
> With MrMC it skips frames (visible and is shown in the codec info.
EDIT: Logs: https://privatebin.net/?688644ae65ded08 ... pu85UrfAA= )
>No issues on Kodi 18.1
> No issue on PC

So the frame skipping only happens on MrMC
Problem still exists in the latest version. Dropping/ skipping frames.

Locked